Chhichhore 2019 x264 720p HD Hindi GOPISAHI

seeders: 39
leechers: 2
updated:
Added by PENDUDESI in Other


ᕦ( ▨̅ ͜▨̅ )ᕥ SPECIAL DEAL - OFFER ᕦ( ▨̅ ͜▨̅ )ᕥ
strongly advises you to use Nord while downloading torrents.
Nord is the safest on the market, and the fastest as well.
No IP Log is saved using Nord, avoid other providers and choose the safest one.
Click here and buy Nord it's on rebates today!
We were able to verify your IP: 3.234.208.66, country: United States.
If we can do that, others can too, protect your privacy with Nord.
is trying the best for you!
ᕦ( ▨̅ ͜▨̅ )ᕥ SPECIAL DEAL - OFFER ᕦ( ▨̅ ͜▨̅ )ᕥ


Chhichhore 2019 x264 720p HD Hindi GOPISAHI Size: 659.6 MB (691640729 Bytes)

Description

https://www.gopisahi.in/ 

 

Chhichhore 2019 x264 720p HD Hindi GOPISAHI


Format : Matroska

Format version : Version 4

File size : 660 MiB

Duration : 2 h 23 min

Overall bit rate : 643 kb/s

Movie name : Chhichhore 2019 GOPISAHI


Video

Format : AVC

Format/Info : Advanced Video Codec

Format profile : [email protected] 

Format settings : CABAC / 6 Ref Frames

Format settings, CABAC : Yes

Format settings, Reference fra : 6 frames

Format settings, GOP : M=5, N=48

Codec ID : V_MPEG4/ISO/AVC

Duration : 2 h 23 min

Bit rate : 576 kb/s

Width : 1 280 pixels

Height : 720 pixels

Display aspect ratio : 16:9

Frame rate mode : Constant

Frame rate : 24.000 FPS

Color space : YUV

Chroma subsampling : 4:2:0

Bit depth : 8 bits

Scan type : Progressive

Bits/(Pixel*Frame) : 0.026

Stream size : 591 MiB (90%)

Title : GOPISAHI

Writing library : x264 core 155 r2917 0a84d98


Audio

Format : AAC LC

Duration : 2 h 23 min

Bit rate : 64.2 kb/s

Channel(s) : 2 channels

Channel layout : L R

Sampling rate : 48.0 kHz

Frame rate : 46.875 FPS (1024 SPF)

Compression mode : Lossy

Stream size : 65.9 MiB (10%)

Title : GOPISAHI

Language : Hindi

 

 


Sharing Widget


Download torrent
Size: 659.6 MB
seeders:39
leechers:2
Chhichhore 2019 x264 720p HD Hindi GOPISAHI - (691640729 Bytes)



To share this torrent use the code below and insert it into comments, status messages, forum posts or your signature.

Torrent: Chhichhore 2019 x264 720p HD Hindi GOPISAHI

Trackers

tracker name
udp://tracker.coppersurfer.tk:6969/announce
udp://tracker.opentrackr.org:1337/announce
udp://explodie.org:6969/announce
udp://9.rarbg.to:2790/announce
udp://bt.xxx-tracker.com:2710/announce
udp://tracker.internetwarriors.net:1337/announce
udp://tracker.openbittorrent.com:80/announce
udp://tracker.tiny-vps.com:6969/announce
udp://open.demonii.si:1337/announce
udp://tracker.torrent.eu.org:451/announce
udp://tracker.pirateparty.gr:6969/announce
udp://ipv4.tracker.harry.lu:80/announce
udp://tracker.cyberia.is:6969/announce
udp://9.rarbg.to:2790/announce
udp://tracker.zer0day.to:1337/announce
udp://tracker.leechers-paradise.org:6969/announce
udp://coppersurfer.tk:6969/announce
µTorrent compatible trackers list

Locations

name
KickassTorrents
Torrent hash: 15112B9A81B4A7C4958202B253BB137587CBDE4C

ᕦ( ▨̅ ͜▨̅ )ᕥ SPECIAL DEAL - OFFER ᕦ( ▨̅ ͜▨̅ )ᕥ
strongly advises you to use Nord while downloading torrents.
Nord is the safest on the market, and the fastest as well.
No IP Log is saved using Nord, avoid other providers and choose the safest one.
Click here and buy Nord it's on rebates today!
We were able to verify your IP: 3.234.208.66, country: United States.
If we can do that, others can too, protect your privacy with Nord.
is trying the best for you!
ᕦ( ▨̅ ͜▨̅ )ᕥ SPECIAL DEAL - OFFER ᕦ( ▨̅ ͜▨̅ )ᕥ

All Comments

*comments box temporarily disabled*
Report a bug