Chhichhore (2019) 720p WEB-Rip x264 Hindi AAC - ESUBS ~ Ranvijay

seeders: 49
leechers: 41
updated:
Added by TheFighter in Other


ᕦ( ▨̅ ͜▨̅ )ᕥ SPECIAL DEAL - OFFER ᕦ( ▨̅ ͜▨̅ )ᕥ
strongly advises you to use Nord while downloading torrents.
Nord is the safest on the market, and the fastest as well.
No IP Log is saved using Nord, avoid other providers and choose the safest one.
Click here and buy Nord it's on rebates today!
We were able to verify your IP: 3.234.208.66, country: United States.
If we can do that, others can too, protect your privacy with Nord.
is trying the best for you!
ᕦ( ▨̅ ͜▨̅ )ᕥ SPECIAL DEAL - OFFER ᕦ( ▨̅ ͜▨̅ )ᕥ


Description

 

Chhichhore (2019) 720p WEB-Rip x264 Hindi AAC - ESUBS ~ Ranvijay  

General
Format                                   : Matroska
Format version                           : Version 4 / Version 2
File size                                : 1.48 GiB
Duration                                 : 2 h 23 min
Overall bit rate mode                    : Variable
Overall bit rate                         : 1 472 kb/s
Movie name                               : Chhichhore (2019) 720p WEB-Rip x264 Hindi AAC - ESUBS ~ Ranvijay

Video
ID                                       : 1
Format                                   : AVC
Format/Info                              : Advanced Video Codec
Format profile                           : [email protected] 
Format settings                          : CABAC / 3 Ref Frames
Format settings, CABAC                   : Yes
Format settings, RefFrames               : 3 frames
Codec ID                                 : V_MPEG4/ISO/AVC
Duration                                 : 2 h 23 min
Bit rate mode                            : Variable
Bit rate                                 : 1 396 kb/s
Maximum bit rate                         : 40.0 Mb/s
Width                                    : 1 280 pixels
Height                                   : 536 pixels
Display aspect ratio                     : 2.40:1
Frame rate mode                          : Constant
Frame rate                               : 24.000 FPS
Color space                              : YUV
Chroma subsampling                       : 4:2:0
Bit depth                                : 8 bits
Scan type                                : Progressive
Bits/(Pixel*Frame)                       : 0.085
Stream size                              : 1.41 GiB (95%)
Title                                    : ~Ranvijay~

Audio
ID                                       : 2
Format                                   : AAC
Format/Info                              : Advanced Audio Codec
Format profile                           : LC
Codec ID                                 : A_AAC-2
Duration                                 : 2 h 23 min
Bit rate                                 : 64.2 kb/s
Channel(s)                               : 2 channels
Channel positions                        : Front: L R
Sampling rate                            : 48.0 kHz
Frame rate                               : 46.875 FPS (1024 SPF)
Compression mode                         : Lossy
Stream size                              : 65.9 MiB (4%)
Title                                    : ~Ranvijay~
Language                                 : Hindi
Default                                  : Yes
Forced                                   : Yes

Text #1
ID                                       : 3
Format                                   : UTF-8
Codec ID                                 : S_TEXT/UTF8
Codec ID/Info                            : UTF-8 Plain Text
Duration                                 : 2 h 18 min
Bit rate                                 : 57 b/s
Count of elements                        : 2034
Stream size                              : 58.3 KiB (0%)
Title                                    : ~Ranvijay~
Language                                 : English
Default                                  : Yes
Forced                                   : Yes

Text #2
ID                                       : 4
Format                                   : UTF-8
Codec ID                                 : S_TEXT/UTF8
Codec ID/Info                            : UTF-8 Plain Text
Duration                                 : 2 h 18 min
Bit rate                                 : 114 b/s
Count of elements                        : 2034
Stream size                              : 116 KiB (0%)
Title                                    : ~Ranvijay~
Language                                 : English
Default                                  : No
Forced                                   : No  

 
 
 
 
 
 
 
 
 


 
Don't walk as you are king, walk as you don't care who the king is....!!  

Sharing Widget


Download torrent
Size: 1.5 GB
seeders:49
leechers:41
Chhichhore (2019) 720p WEB-Rip x264 Hindi AAC - ESUBS ~ Ranvijay - (1610612736 Bytes)



To share this torrent use the code below and insert it into comments, status messages, forum posts or your signature.

Torrent: Chhichhore (2019) 720p WEB-Rip x264 Hindi AAC - ESUBS ~ Ranvijay

Trackers

tracker name
udp://tracker.pirateparty.gr:6969/announce
udp://tracker.tiny-vps.com:6969/announce
udp://open.stealth.si:80/announce
udp://tracker.opentrackr.org:1337/announce
udp://tracker.internetwarriors.net:1337/announce
udp://9.rarbg.to:2740/announce
udp://tracker1.itzmx.com:8080/announce
udp://9.rarbg.me:2710/announce
udp://thetracker.org:80/announce
udp://tracker.coppersurfer.tk:6969/announce
https://tracker.fastdownload.xyz:443/announce
udp://torrentclub.tech:6969/announce
udp://open.demonii.si:1337/announce
http://seeders-paradise.org:80/announce
udp://tracker.zer0day.to:1337/announce
udp://tracker.leechers-paradise.org:6969/announce
udp://coppersurfer.tk:6969/announce
µTorrent compatible trackers list

Locations

name
KickassTorrents
Torrent hash: F67E48CFE2E698D09870A0624E304FC7CA4CD975

ᕦ( ▨̅ ͜▨̅ )ᕥ SPECIAL DEAL - OFFER ᕦ( ▨̅ ͜▨̅ )ᕥ
strongly advises you to use Nord while downloading torrents.
Nord is the safest on the market, and the fastest as well.
No IP Log is saved using Nord, avoid other providers and choose the safest one.
Click here and buy Nord it's on rebates today!
We were able to verify your IP: 3.234.208.66, country: United States.
If we can do that, others can too, protect your privacy with Nord.
is trying the best for you!
ᕦ( ▨̅ ͜▨̅ )ᕥ SPECIAL DEAL - OFFER ᕦ( ▨̅ ͜▨̅ )ᕥ

All Comments

*comments box temporarily disabled*
Report a bug